________________________________________ ________________________________________ ingyen premier film zene és sok érdekes dolog ami máshol nincs de sok sok film ingyen EGY REGISZTRÁLÁS ÉS TÖLTHETSZ IS....
TUTTISAROK   >>   Fórum   >>   filmek (no off)
film letöltés

Ha szeretne hozzászólni, be kell jelentkeznie!
Bejelentkezés >>

Listázás időrendben


 © szalito12011. aug. 15. 12:46 | Válasz | #508 
Kokain fehéren-feketén




Magyar dokumentumfilm, 2010


Hiteles film a kokainfüggőségről.


Operatőr: Barcs Miklós
Zeneszerző-vágó: Borbély Péter
Vágó-rendező: Bernáth Henrik
Szakmai vezető: Miletics Marcell
Közreműködők: Dr. Csorba József, Dr. Zacher Gábor

[General] Format: AVI
[General] File size: 349 MiB
[General] PlayTime: 36mn 8s
[General] Bit rate: 1342 Kbps
[Video] Codec: XviD
[Video] PlayTime: 36mn 8s
[Video] Bit rate: 1137 Kbps
[Video] Width: 640 pixels
[Video] Height: 384 pixels
[Video] Frame rate: 25.000 fps
[Audio] Codec: AC3
[Audio] PlayTime: 36mn 8s
[Audio] Bit rate: 192 Kbps
[Audio] Sampling rate: 44 KHz



letöltés:

[code]
http://download.hellshare.hu/kokain-feheren-feketen-2010/kokain-feheren-feketen-2010-avi/3403288/
[/code]

 © szalito12011. aug. 15. 12:45 | Válasz | #507 
Gyilkosság 2 (Murder.2) 2011.DVDRiP



angol nyelvü Akció | Bűnügyi | Dráma 127 perc


Megjelenés éve: 2011
127 perc - Akció | Bűnügyi | Dráma
Rendező: Mohit Suri
Szereplők: Jaqueline Fernandes, Yana Gupta, Emraan Hashmi, Bikramjeet Kanwarpal, Shweta Kwatra

Történet

Bollywood, színész Emraan Hashmi már elkezdett lövöldözni a folytatást az egyik legnagyobb érzéki találatok "Murder" (2004), és tippeket, hogy ez a részlet lenne egy "éles thriller", amelyben szerepet tölt be egy sorozatgyilkos.

tech infó:
[code]
RELEAsE DAtE...: 2011-08-07
CiNEmA DAtE....: 8 July 2011 (India)
GENre..........: Action | Crime | Drama
SOURcE TYpE....: R1 DVD9
RuNTiMe........: 2:07:16
ReGiOn.........: NTSC
ViDeO FoRmAt...: XviD
ViDeO BiTRaTe..: 1398 kbps
ReSoLutIioN....: 640 x 272
AuDiO FoRmAt...: MP3 VBR
AuDiO BiTRaTe..: 125 kb/s
FrAmERaTe......: 23.976 FPS
ArChiVeS.......: CD1 /50 | CD2 / 50
LiNK...........: http://www.imdb.com/title/tt1918965/
RATiNG.........: 5.0/10 (726 votes)
Subtitles......: English
[/code]




letöltés:
[code]
http://download.hellshare.hu/murder-2-2011-dvdrip-xvid-d3si/3395091/
[/code]

 © szalito12011. aug. 15. 12:45 | Válasz | #506 
A majmok bolygója: Lázadás 2011 (Rise of the Planet of the Apes)



színes, amerikai sci-fi akciófilm, 2011

tartalom:

Egy titkos San Franciscó-i kutatólaboratóriumban majmokon végeznek genetikai kísérleteket, melynek eredménye, hogy egyre intelligensebb állatokat hoznak létre. Egészen addig, míg az egyik - a legjobban sikerült - teremtményük, Caesar meg nem elégeli a rabságot, fel nem lázítja sorstársait és élükre állva ki nem szabadul a szigorúan őrzött, a világtól elzárt intézményből. A majmok kíméletlen háborúba kezdenek elbizakodott teremtőik ellen, amit már senki nem tud megállítani.

rendező: Rupert Wyatt
író: Pierre Boulle
forgatókönyvíró: Rick Jaffa, Amanda Silver
zeneszerző: Patrick Doyle
operatőr: Andrew Lesnie
producer: Peter Chernin, Dylan Clark, Rick Jaffa, Amanda Silver
vágó: Conrad Buff IV, Mark Goldblatt

szereplő(k):
James Franco (Will Rodman)
Freida Pinto (Caroline)
John Lithgow (Charles Rodman)
Brian Cox (John Landon)
Tom Felton (Dodge Landon)
David Oyelowo (Steve Jacobs)
Tyler Labine (Franklin)
David Hewlett (Hunsiker)
Andy Serkis (Caesar)


Video
ID : 0
Format : MPEG-4 Visual
Format profile : Advanced Simple@L5
Format settings, BVOP : 2
Format settings, QPel : No
Format settings, GMC : No warppoints
Format settings, Matrix : Default (MPEG)
Muxing mode : Packed bitstream
Codec ID : XVID
Codec ID/Hint : XviD
Duration : 1h 37mn
Bit rate : 1 865 Kbps
Width : 720 pixels
Height : 320 pixels
Display aspect ratio : 2.25:1
Frame rate : 25.000 fps
Color space : YUV
Chroma subsampling : 4:2:0
Bit depth : 8 bits
Scan type : Progressive
Compression mode : Lossy
Bits/(Pixel*Frame) : 0.324
Stream size : 1.28 GiB (93%)
Writing library : XviD 64

Audio
ID : 1
Format : MPEG Audio
Format version : Version 1
Format profile : Layer 3
Mode : Joint stereo
Mode extension : MS Stereo
Codec ID : 55
Codec ID/Hint : MP3
Duration : 1h 37mn
Bit rate mode : Constant
Bit rate : 128 Kbps
Channel(s) : 2 channels
Sampling rate : 44.1 KHz
Compression mode : Lossy
Stream size : 89.7 MiB (6%)
Alignment : Split accross interleaves
Interleave, duration : 40 ms (1.00 video frame)

sample:

[code]

http://download.hellshare.hu/rise-of-the-apes-2011-ts-readnfo-xvid-imagine/rise-of-the-apes-2011-ts-readnfo-xvid-imagine-sample-avi/3390773/
[/code]


letöltés:

[code]
http://download.hellshare.hu/rise-of-the-apes-2011-ts-readnfo-xvid-imagine/rise-of-the-apes-2011-ts-readnfo-xvid-imagine-avi/3390824/

[/code]



felirat:
[code]
http://download.hellshare.hu/rise-of-the-apes-2011-ts-readnfo-xvid-imagine/4920-rise-of-the-planet-of-the-apes-2011-srt/3390772/
[/code]



NORMÁLIS FELIRAT:
[code]
http://www.mediafire.com/?dfgicccatcc2hjn

[/code]

 © szalito12011. aug. 15. 12:40 | Válasz | #505 
Amerika Kapitány: Az első bosszúálló
(Captain America: The First Avenger)





színes, magyarul beszélő, amerikai sci-fi akciófilm, 125 perc, 2011
Dolby Digital

rendező: Joe Johnston
forgatókönyvíró: Christopher Markus, Stephen McFeely
operatőr: Shelly Johnson
producer: Kevin Feige
vágó: Robert Dalva, Jeffrey Ford, Michael McCusker

szereplő(k):
Chris Evans (Steve Rogers)
Hugo Weaving (Johann Schmidt)
Dominic Cooper (Howard Stark)
Tommy Lee Jones (Chester Phillips)
Stanley Tucci (Abraham Erskine)
Hayley Atwell (Peggy Carter)
Natalie Dormer (Private Lorraine)
Sebastian Stan (James 'Bucky' Barnes)
Richard Armitage (Heinz Kruger)

szinkronhang:
Zámbori Soma (Steve Rogers)
Rosta Sándor (Johann Schmidt)
Simon Kornél (Howard Stark)
Rajhona Ádám (Chester Phillips)



Az Amerika Kapitány a Marvel univerzum kezdeteire koncentrál, amikor Steve Rogers (Chris Evans) önkéntesként jelentkezik egy kísérleti programba, amelytől átváltozik az Amerika Kapitányként ismert szuperkatonává.
Amerika Kapitány egyesíti erejét Bucky Barnesszal (Sebastian Stan) és Peggy Carterrel (Hayley Atwell), hogy szembeszálljanak a gonosz HIDRA nevű szervezettel, melyet az ördöngös Vörös Kopnya (Hugo Weaving) vezet.

Magyar cim..: Amerika Kapitany Az elso bosszuallo
Angol cim...: Captain America: The First Avenger
Mufaj.......: akcio | kaland | sci-fi
Nyelv.......: magyar /mozis/
Felirat.....: -

Jatekido....: 01:53:45 (h:m:s) /stablista nincs/
Forras......: IMAGINE v2 /thanks for the source/
Formatum....: Avi
Kep.........: XviD 1581 Kbps
Felbontas...: 720x320
Hang........: MP3 192 Kbps 2.0 ch 44.1KHz
FPS.........: 29.970 fps
Meret.......: 1.43 GB

TECHNIKAI INFÓ:


Video
ID : 0
Format : MPEG-4 Visual
Format profile : Advanced Simple@L5
Format settings, BVOP : 2
Format settings, QPel : No
Format settings, GMC : No warppoints
Format settings, Matrix : Default (MPEG)
Muxing mode : Packed bitstream
Codec ID : XVID
Codec ID/Hint : XviD
Duration : 1h 53mn
Bit rate : 1 581 Kbps
Width : 720 pixels
Height : 320 pixels
Display aspect ratio : 2.25:1
Frame rate : 29.970 fps
Color space : YUV
Chroma subsampling : 4:2:0
Bit depth : 8 bits
Scan type : Progressive
Compression mode : Lossy
Bits/(Pixel*Frame) : 0.229
Stream size : 1.26 GiB (92%)
Writing library : XviD 64

Audio
ID : 1
Format : MPEG Audio
Format version : Version 1
Format profile : Layer 3
Codec ID : 55
Codec ID/Hint : MP3
Duration : 1h 53mn
Bit rate mode : Constant
Bit rate : 128 Kbps
Channel(s) : 2 channels
Sampling rate : 44.1 KHz
Compression mode : Lossy
Stream size : 104 MiB (7%)
Alignment : Split accross interleaves
Interleave, duration : 33 ms (1.00 video frame)
Interleave, preload duration : 500 ms
sample:

[code]

http://download.hellshare.hu/amerika-kapitany-2011/sample-avi/3386243/

[/code]


letöltés:
[code]
http://download.hellshare.hu/amerika-kapitany-2011/amerika-kapitany-az-elso-bosszuallo-2011-hun-cam-xvid-mdub-avi/3386241/
[/code]

 © szalito12011. aug. 15. 12:39 | Válasz | #504 
Gyilkos megszállás Generation Kill



színes, magyarul beszélő, amerikai filmsorozat, 2008


rendező: Simon Cellan Jones, Susanna White
forgatókönyvíró: Ed Burns, David Simon, Evan Wright
operatőr: Ivan Strasburg
producer: Andrea Calderwood
vágó: Jason Krasucki, Oral Norrie Ottey

szereplő(k):
Alexander Skarsgard (Brad 'Jeges' Colbert)
Stark Sands (Nathaniel Fick)
James Ransone (Josh Ray Person)
Lee Tergesen (Evan Wright)
Jon Huertas (Antonio 'Lándzsás' Espera)
Billy Lush (Harold James Trombley)
Chance Kelly (Stephen 'Keresztapa' Ferrando)
Eric Nenninger (Dave McGraw)
Robert John Burke (James Mattis vezérőrnagy)





tartalom:

Kuvaitban, a sivatag északi részén az első tengerészgyalogos hadosztály Irak lerohanására készül. Mindenki arra vár, hogy az egység parancsnoka mikor adja ki a parancsot az indulásra... Amikor megindulnak, még senki sem tudja, mi vár majd rájuk.

A film értékelése: 9,3/10

[code]
http://port.hu/gyilkos_megszallas_generation_kill/pls/fi/films.film_page?i_where=2&i_film_id=97895
[/code]


[General] Format: AVI
[General] File size: 725 MiB
[General] PlayTime: 1h 8mn
[General] Bit rate: 1477 Kbps
[Video] Codec: XviD
[Video] PlayTime: 1h 8mn
[Video] Bit rate: 1272 Kbps
[Video] Width: 624 pixels
[Video] Height: 352 pixels
[Video] Frame rate: 23.976 fps
[Audio] Codec: AC3
[Audio] PlayTime: 1h 5mn
[Audio] Bit rate: 192 Kbps

letöltés:

[code]

http://download.hellshare.hu/generation-kill-s01/3364934/
[/code]

 © szalito12011. aug. 15. 12:38 | Válasz | #503 
A Madagaszkar pingvinjei 1-46-ig



színes, magyarul beszélő, amerikai animációs sorozat, 2008

Szereplő Eredeti hang
Kapitány (pingvin) Tom McGrath
Közlegény (pingvin) James Patrick Stuart
Kowalski (pingvin) Jeff Bennett
Rico (pingvin) John Di Maggio
Julien király (gyűrűsfarkú maki) Danny Jacobs
Maurice (véznaujjú maki) Kevin Michael Richardson
Mort (egérmaki) Andy Richter
Mason (csimpánz) Conrad Vernon
Marlene (vidra) Nicole Sullivan
Alice (állatkerti gondozó) Mary Scheer

epizod lista:

Eredeti / Magyar cím
1 Gone in a Flash / Morris villant
2 Launchtime / Ebédidő
3 Haunted Habitat / Kísértetjárta lakhely
4 Operation: Plush & Cover / Plüss hadművelet
5 Happy King Julien Day! / Boldog Julien király napot!
6 Paternal Egg-Stinct / Atyai tojásöszton
7 Assault & Batteries / Elem ostrom
8 Penguiner Takes Alls / A pingvin mindent visz
9 Two Feet High and Rising / Két lábbal a föld fölött
10 Tangled in the Web / Fennakadtunk a mátrixon
11 Crown Fools / Korona őrület
12 The Hidden / A rejtett
13 Kingdom Come / Másvilág
14 Little Zoo Coup / Állatkerti derbi
15 All Choked Up / Totális dugulás
16 Popcorn Panic / Popcorn pánik
17 Go Fish / Hal művelet
18 Miracle on Ice / Csoda a jégen
19 Needle Point / Tűfrász
20 Eclipsed / Napfogyatkozás
21 Mort Unbound / Elszabadult Mort
22 Roomies / Lakótársak
23 Misfortune Cookie / Balszerencse süti
24 Lemur See, Lemur Do / Amit a maki lát megteszi
25 Roger Dodger / Dörzsölt Roger
26 Skorca! / Űrka
27 Otter Gone Wild / Veszett vidra
28 Cat's Cradle / Macska bölcső
29 Monkey Love / Majomszerelem
30 Tagged / Békjóban
31 What Goes Around / Jótett helyébe
32 Mask of the Raccoon / A mosómedve álarca
33 Out of the Groove / Risza para
34 Jungle Law / Dzsungel törvény
35 I Was a Penguin Zombie / Pingvin zombi voltam
36 Sting Operation / Fullánk hadművelet
37 All King, No Kingdom / Barátok nélkül nem király a királyság
38 Untouchable / Érinthetetlen
39 Over Phil / Phil-en túl
40 Miss Understanding / Tévedés, asszony a neved
41 An Elephant Never Forgetsg / Egy elefánt sosem felejt
42 Otter Things Have Happened / Vidra dolgok történtek
43 Zoo Tube / Zoo Tyúb
44 Snakehead! / Kígyófej
45 Jiggles / A zselény
46 The Falcon and the Snow Job / A félreérthető sólyomlány

A legtöbb ember számára a Kapitány, Kowalski, Rico és a Közlegény csak négy édes kis pingvin a Central Parki Állatkertben.És a négy pingvin pont ezt akarja elhitetni magáról. Hogy miért? Mert ezek a békésnek látszó pingvinek valójában egy elit katonai alakulat tagjai, akik elképesztő kommandós kiképzést kaptak és titkos főhadiszállásuk is van. És a küldetésük? Hogy fenntartsák a rendet az állatkertben. És hogy ki a rettegett ellenség? Legújabb, undorító szomszédjuk, Julien király. Ez a kis bulizós állat, aki kikiáltotta magát a lemurok királyává, az állatkert legújabb lakója, és azon van hogy vele együtt minden állat állandóan..."riszáljon így is, úgy is!!"

Kép
Sáv száma : 0
Formátum : MPEG-4 Visual
Formátum profil : Advanced Simple@L5
Formátum beállítások, BVOP : nem
Formátum beállítások, QPel : nem
Formátum beállítások, GMC : 0 warppoint
Formátum beállítások, mátrix : egyedi
Kódek azonosító : XVID
Kódek azonosító/Tipp : XviD
Időtartam : 11 perc
Adatsebesség : 1 801 Kbps
Szélesség : 720 képpont
Magasság : 400 képpont
Képarány : 16:9
Képkockasebesség : 25,000 fps
Eredeti képkockasebesség : 23,976 fps
ColorSpace : YUV
ChromaSubsampling : 4:2:0
BitDepth/String : 8 bit
Sorváltás típusa : folytonos
Bit/(képpont*képkocka) : 0.250
Adatfolyam mérete : 150 MiB (92%)
Kódoló könyvtár : XviD 1.1.0 (UTC 2005-11-22)

Hang
Sáv száma : 1
Formátum : MPEG Audio
Formátum változat : Version 1
Formátum profil : Layer 3
Format_Settings_Mode : Joint stereo
Format_Settings_ModeExtension : MS Stereo
Kódek azonosító : 55
Kódek azonosító/Tipp : MP3
Időtartam : 11 perc
Adatsebesség mód : változó
Adatsebesség : 138 Kbps
Legkisebb adatsebesség : 128 Kbps
Csatornák száma : 2 csatorna
Mintavételezési gyakoriság : 48,0 KHz
Adatfolyam mérete : 11,5 MiB (7%)
Igazítás : igazított
Átfedés hossza : 24 emp (0,60 képkocka)
Átfedés előolvasási hossz : 466 ms
Kódoló könyvtár : LAME3.97b
Kódoló könyvtár beállításai : -m j -V 2 -q 3 -lowpass 18.6 --vbr-old -b 128









letöltés:

[code]

http://download.hellshare.hu/a-madagaszkar-pingvinjei-s01/3363582/

[/code]

 © szalito12011. aug. 15. 12:36 | Válasz | #502 
Zorro legendája (The Legend of Zorro)



színes, magyarul beszélő, amerikai kalandfilm, 129 perc, 2005 (12)

rendező: Martin Campbell
forgatókönyvíró: Alex Kurtzman, Roberto Orci
operatőr: Phil Meheux
zene: James Horner
producer: Laurie MacDonald, Walter F. Parkes, Lloyd Phillips
executive producer: Steven Spielberg
vágó: Stuart Baird

szereplő(k):
Antonio Banderas (Don Alejandro de la Vega/Zorro)
Catherine Zeta-Jones (Elena de La Vega)
Adrian Alonso (Joaquin)
Giovanna Zacarías (Blanca Cortez)
Raúl Méndez (Ferroq)
Pedro Armendáriz Jr. (Don Pedro)
Rufus Sewell (Armand)
Michael Emerson (Harrigan)


tartalom:

Zorro álarcának örököse, Don Alejandro de la Vega legutóbbi kalandjuk óta feleségül vette a szépséges Elenát, fiuk, Joaquin pedig már 10 éves. A kisfiú rajong a hős Zorróért és nem is sejti, hogy apja a titokzatos fekete lovag. Elena viszont választás elé állítja férjét: vagy család, vagy hősködés. Don Alejandrónak pedig döntenie kell, hogy Kalifornia elesett emberein próbál-e meg segíteni, vagy családfői kötelességeit látja el inkább.



ViDEO.iNFO.:


..TRACK.NAME.:The.Legend.of.Zorro.2005.BluRay.720p.DTS.x264.Hun-TRiNiTY
..RESOLUTiON..:1280x544
..BiTRATE......:5460 kb/s
..FRAMERATE....:23.976 fps
..SUBTiTLE(S)..:Eng, Hun


AUDiO.iNFO.:


AUDiO.TRACK.#01.:


..LANGUAGE.:English
..CODEC.....:DTS
..CHANNELS...:6
..SAMPLE.RATE.:48 kHz
..BiTRATE......:1536 kbps


AUDiO.TRACK.#02.:


..LANGUAGE.:Hungarian
..CODEC.....:AC3
..CHANNELS...:6
..SAMPLE.RATE.:48 kHz
..BiTRATE......:384 kbps



sample:

[code]

http://download.hellshare.hu/the-legend-of-zorro-2005-bluray-720p-dts-x264-hun/tloz-sample-trinity-mkv/3403208/
[/code]


letöltés:

[code]

http://download.hellshare.hu/the-legend-of-zorro-2005-bluray-720p-dts-x264-hun/the-legend-of-zorro-2005-bluray-720p-dts-x264-hun-trinity-part1-rar/3402306/

http://download.hellshare.hu/the-legend-of-zorro-2005-bluray-720p-dts-x264-hun/the-legend-of-zorro-2005-bluray-720p-dts-x264-hun-trinity-part2-rar/3402349/

http://download.hellshare.hu/the-legend-of-zorro-2005-bluray-720p-dts-x264-hun/the-legend-of-zorro-2005-bluray-720p-dts-x264-hun-trinity-part3-rar/3402431/

http://download.hellshare.hu/the-legend-of-zorro-2005-bluray-720p-dts-x264-hun/the-legend-of-zorro-2005-bluray-720p-dts-x264-hun-trinity-part4-rar/3402751/



[/code]

 © szalito12011. aug. 15. 12:35 | Válasz | #501 
Hazárd megye lordjai: Irány Hollywood!
The Dukes of Hazzard: Hazzard in Hollywood)



színes, magyarul beszélő, amerikai akció-vígjáték, 120 perc, 2000
Stereo

rendező: Bradford May
operatőr: Bradford May
jelmeztervező: Betty Pecha Madden
zene: Tom Rizzo
producer: Skip Ward
executive producer: Gy Waldron
látványtervező: Rodger Maus
vágó: Drake Silliman

szereplő(k):
Tom Wopat (Luke Duke)
John Schneider (Bo Duke)
James Best (Rosco P. Coltrane)
Catherine Bach (Daisy Duke)
Rick Hurst (Deputy Cletus Hogg)
Patricia Manterola (Gabriela)
Susie Park (Sharon)


Video info:
Formátum : MPEG-4 Visual
Codec ID/Hint : DivX 5
Duration : 1ó 23perc
Adatsebesség : 1 000Kbps
Szélesség : 720képpont
Magasság : 576képpont
Képarány : 5/4
Képsebesség : 25,000fps
Standard : PAL
Szoftver beállítások : DivX 5.2.0 (UTC 2004-07-15)


Audio info:
Formátum : ADPCM
Csatorna : 2csatorna
Mintavételezési gyakoriság : 48,0KHz
Felbontás : 4bit


letöltés:
[code]

http://download.hellshare.hu/hazard-megye-lordjai-irany-hollywood-avi/3406262/

[/code]

 © szalito12011. aug. 15. 12:34 | Válasz | #500 
Való világ 4 - Lebukott az RTL valóság show-ja

Információk:
Év: 2011
Nyelv: Hun





Leírás:
Lebukott a népbutító sza***zi műsor (mentsétek, mert törlik mindenhonnan)
VV Gigi Nem tudtunk forgatni, nagyon kamu volt, újraforgatni...
Miután Gigi és Jerzy visszatértek a luxushotelből a villába, Gigi elszólta
magát. Az eset után /09:35/, további online közvetítés nem volt...
A sok agyhalott meg elhiszi, hogy nem megrendezett az egész, küldözgeti az
SMS-eket, mintha bármit is számítana. Talán most sikerül kinyitni az ő
csipáikat is.
Az online közvetítést az elszólás után az RTL hirtelen megszakította (vajon
miért?), de szerencsére valaki lementette, így már letagadni sem tudják majd.



-- Video Információk ---
Video Codec Típus (pl. DIV3)
Video Codec Név (pl. DivX 3, Low-Motion)
Képméret (pixelben) ×
Bitsebesség (kbps)
--- Audio Információk ---
Audio Codec (pl. AC3)
Mintavételezési Frekvencia (Hz)
Audio Bitsebesség (kbps)
Audio Bitsebesség Típus (CBR vagy VBR)
Audio Csatornák Száma (pl. stereonál 2)



LETÖLTÉS:

[code]



http://download.hellshare.hu/valo-vilag-4-lebukott-az-rtl-valosag-show-ja/lebukott-az-rtl-valosag-show-ja-mp4/3407209/


[/code]

 © szalito12011. aug. 15. 12:32 | Válasz | #499 
Zöld Lámpás (Green Lantern) 2011 Cam Xvid Hungarian-G1-CiNEDUB




színes, magyarul beszélő, amerikai sci-fi akciófilm, 114 perc, 2011 (BA)

rendező: Martin Campbell
forgatókönyvíró: Greg Berlanti, Michael Goldenberg, Michael Green, Marc Guggenheim
zeneszerző: James Newton Howard
operatőr: Dion Beebe
producer: Greg Berlanti, Donald De Line
vágó: Stuart Baird

szereplő(k):
Ryan Reynolds (Hal Jordan)
Blake Lively (Carol Ferris)
Peter Sarsgaard (Hector Hammond)
Mark Strong (Sinestro)
Temuera Morrison (Abin Sur)
Jenna Craig (a 11 éves Carol Ferris)
Jon Tenney (Martin Jordan)
Mike Doyle (Jack Jordan)

szinkronhang:
Géczi Zoltán (Hal Jordan magyar hangja)
Nemes Takách Kata (Carol Ferris magyar hangja)
Széles Tamás (Hector Hammond magyar hangja)
Király Attila (Sinestro magyar hangja)

Az univerzum végtelen és titokzatos, ám vannak néhányan, akik jól kiismerik magukat benne, és pontosan tudják, ki jó, ki rossz: ők a Zöld Lámpás Alakulat tagjai, akik a világegyetem nyugalmáért felelnek - mindegyikük egy olyan gyűrűt hord, ami különleges képességeket biztosít neki. Amikor új, minden eddiginél hatalmasabb ellenség fenyegeti az Univerzum békéjét, kénytelenek - most először - egy földi embert is bevenni a csapatba.
És attól kezdve a világ sorsa egy tehetséges, vagány berepülőpilóta kezébe kerül. Hal (Ryan Reynolds) gyorsan megtanulja újonnan kapott, végtelen erejét használni. Gyerekkori szerelmével, Carollal (Blake Lively) közösen vetik bele magukat a küzdelembe: de ez a mostani nagyobb mindennél, amit földi szem valaha látott.

Video: [XVID] 720x304 25.000 fps 1696.0 kbps
Audio: 2.0 MP3 128.0 kbps MOZIS
Hossz: 107 m 0 s
Méret: 1.38GB


sample:
[code]
http://download.hellshare.hu/zold-lampas-int-cam-xvid-hungarian-g1-cinedub/g1cndb-zoldlampas-cam-sample-avi/3414806/

[/code]

letöltés:

[code]

http://download.hellshare.hu/zold-lampas-int-cam-xvid-hungarian-g1-cinedub/g1cndb-zoldlampas-cam-avi/3414805/

[/code]

 © szalito12011. aug. 15. 12:31 | Válasz | #498 
A fideszes zsidó, a nemzeti érzés nélküli anya és a mediáció
(The Fidesz jew, the mother with no sense of nation, and mediation)








40. Magyar Filmszemle (2009) - Schiffer Pál Emlékdíj: Hajdú Eszter


színes, magyar dokumentumfilm, 72 perc, 2008 (12)

rendező: Hajdú Eszter
forgatókönyvíró: Gát Balázs
zeneszerző: Mester Sándor
operatőr: Németh Viktor, Faragó Péter, Szandtner Dániel
producer: Vészi János
gyártásvezető: Solymosi Norbert, Mester Sándor
vágó: Féjja Balázs
hang: Borszéki Attila, Sípos Gábor, Ezer Zsolt, Bob Martini


Szereplők: Zsuzsa Magyar, Gábor Sebes, Gábor Székely, Lajos Tóth, Zsófia Tóth

Hossz: 70 perc

TARTALOM:

A film azzal foglalkozik, hogy a rendszerváltás után kialakult politikai légkör hogyan tett tönkre barátságokat, családokat. A kapcsolatokat a mediáció eszközeivel próbálják meg helyrehozni, melyet végigkövet a film. Nem kampány film, nem foglal politikailag állást, sőt igazából nem is a politikáról szól. A legbelsőbb érzéseket mutatja be, azt, hogy miért és hogyan gyökerezik a politikai meggyőződés az emberekben, a bal és a jobb oldali gondolkodás miért nem tud egymás mellett, családon belül vagy barátságokban békésen együtt élni, honnan származnak és hogyan alakulnak ki ezek a legtöbbször kibékíthetetlen, véres ellentétek. A film lendületesen, a játékfilmeknél megszokott tempóban és izgalommal pörög végig.



Format : AVI
Format/Info : Audio Video Interleave
File size : 588 MiB
Duration : 1h 10mn
Overall bit rate : 1 164 Kbps
Writing application : Lavf52.13.0

Video
ID : 0
Format : xvid
Codec ID : xvid
Duration : 1h 10mn
Bit rate : 1 024 Kbps
Width : 640 pixels
Height : 480 pixels
Display aspect ratio : 4:3
Frame rate : 25.000 fps
Bits/(Pixel*Frame) : 0.133
Stream size : 517 MiB (88%)

Audio
ID : 1
Format : MPEG Audio
Format version : Version 1
Format profile : Layer 3
Mode : Joint stereo
Mode extension : MS Stereo
Codec ID : 55
Codec ID/Hint : MP3
Duration : 1h 10mn
Bit rate mode : Constant
Bit rate : 128 Kbps
Channel(s) : 2 channels
Sampling rate : 44.1 KHz
Stream size : 64.7 MiB (11%)
Alignment : Aligned on interleaves
Interleave, duration : 26 ms (0.65 video frame)






letöltés:

[code]http://download.hellshare.hu/fideszes-zsido-avi/3406274/[/code]

 © szalito12011. aug. 15. 12:29 | Válasz | #497 
A lyuk (The Hole) DVDRIP XVID HUN




színes,magyarul beszélő angol misztikus film, 98 perc, 2001 (16)


Négy fiatal iskolás, két lány és két fiú, eltűnik egy előkelő angol magániskolából. Csak Liz éli túl a megpróbáltatásokat, de miközben felidézi azt a két hetet, amit bezárva töltött egy sötét, földalatti bunkerben, lassan kiderül, hogy az események olyan lelki traumát okoztak neki, ami megakadályozza abban, hogy különbséget tegyen a valóság és a képzelgés között. De hát mi is történt valójában a bunkerben? Erre a kérdésre keresi a választ Dr. Philippa Horwood, a rendőrséggel együttműködő pszichológus is. Miközben a rendőrség tárgyi bizonyítékok és nyomok után kutat a földalatti bunkerben, Philippa minden energiájával beleveti magát az igazság kiderítésébe. Liz pedig felidézi a két héttel azelőtti énjét, amikor őrülten beleszeretett Mike-ba, egy híres amerikai rock-sztár fiába, a földkerekség legmenőbb srácába.




rendező: Nick Hamm
író: Guy Burt
forgatókönyvíró: Ben Court
operatőr: Denis Crossan
díszlettervező: Tom Read
jelmeztervező: Verity Hawkes
zene: Clint Mansell
producer: Pippa Cross
látványtervező: Eve Stewart
vágó: Niven Howie

szereplő(k):
Thora Birch (Liz)
Embeth Davidtz (Dr. Philippa Horwood)
Desmond Harrington (Mike)
Keira Knightley (Frankie)
Anastasia Hille (Gillian)
Emma Griffiths Malin (Daisy)
Gemma Powell (Minnie)

Format : AVI
Format/Info : Audio Video Interleave
File size : 1.39 GiB
Duration : 1h 38mn
Overall bit rate : 2 023 Kbps
Video
ID : 0
Format : MPEG-4 Visual
Format profile : Advanced Simple@L5
Format settings, BVOP : 1
Format settings, QPel : No
Format settings, GMC : No warppoints
Format settings, Matrix : Default (MPEG)
Muxing mode : Packed bitstream
Codec ID : XVID
Codec ID/Hint : XviD
Duration : 1h 38mn
Bit rate : 1 566 Kbps
Width : 688 pixels
Height : 288 pixels
Display aspect ratio : 2.40:1
Frame rate : 25.000 fps
Color space : YUV
Chroma subsampling : 4:2:0
Bit depth : 8 bits
Scan type : Progressive
Compression mode : Lossy
Bits/(Pixel*Frame) : 0.316
Stream size : 1.07 GiB (77%)
Writing library : XviD 1.2.0.dev47 (UTC 2006-11-01)

Audio
ID : 1
Format : AC-3
Format/Info : Audio Coding 3
Mode extension : CM (complete main)
Codec ID : 2000
Duration : 1h 38mn
Bit rate mode : Constant
Bit rate : 448 Kbps
Channel(s) : 6 channels
Channel positions : Front: L C R, Side: L R, LFE
Sampling rate : 48.0 KHz
Bit depth : 16 bits
Compression mode : Lossy
Stream size : 314 MiB (22%)
Alignment : Split accross interleaves
Interleave, duration : 40 ms (1.00 video frame)
Interleave, preload duration : 500 ms



[code]http://www.port.hu/pls/fi/films.film_page?i_film_id=54659&i_city_id=3372&i_county_id=-1&i_where=2[/code]




letöltés:

[code]http://download.hellshare.hu/a-lyuk/a-lyuk-avi/3415180/[/code]

 © szalito12011. aug. 15. 12:29 | Válasz | #496 
Király! (Your Highness)



színes,feliratos amerikai kalandfilm, 2011 (BA)

rendező: David Gordon Green
forgatókönyvíró: Danny McBride, Ben Best
zeneszerző: Steve Jablonsky
operatőr: Tim Orr
producer: Scott Stuber
vágó: Craig Alpert

szereplő(k):
Natalie Portman (Isabel)
James Franco (Fabious)
Zooey Deschanel (Belladonna)
Danny McBride (Thadeous)
Justin Theroux (Leezar)
Damian Lewis
Toby Jones
Charles Dance


Tartalom
Tádé egész életében azt nézte, ahogy a tökéletes bátyja, Fábiusz vakmerő hőstetteket hajt végre, és meghódítja népe szívét. Elege van abból, hogy lemarad a kalandokról, az imádatról és a trónról, ezért elmerül a varázsfűben, a kemény piákban és a könnyű hölgyekben. Ám amikor Fábiusz leendő menyasszonyát, Belladonnát elrabolja a gonosz varázsló, Lazúr, a király ultimátumot ad mihaszna fiának: legyen férfi, és segítsen az ara megmentésében, vagy kotródjon el.

DVDRip.XviD-Blackpanther.HUNSUB
Videó információk:
Méret: 703,89 MB
Hossz: 1:45:28
Típus: AVI (XviD - XviD project)
Felbontás: 620 x 256 pixel
Bitráta: 812 Kbps
Képkockák száma/mp: 23.976
Oldalarány: 2.422

Audió információk:
Audiósávok száma: 1
Audiosáv #1 adatai:
Audiósáv típusa: MPA1L3 (MPEG-1 Audio layer 3)
Csatornák száma: 2
Bitráta: 112 Kbps CBR
Mintavételezési frekvencia: 48.0 KHz

sample:
[code]
http://download.hellshare.hu/your-highness-2011-hunsub/sample-avi/3417751/

[/code]

letöltés:
[code]

http://download.hellshare.hu/your-highness-2011-hunsub/your-highness-2011-hunsub-dvdrip-xvid-blackpanther-avi/3417750/
[/code]

 © szalito12011. aug. 15. 12:28 | Válasz | #495 
200 M.P.H - Pokoli Sebesség DVDRip 2011



színes, feliratos, amerikai akciófilm, 2011

Rendezte:Cole S. McKay
Irta:Sean Leon

Szereplők:
Jaz Martin,
AnnaMaria Demara,
Paul Logan,
Darren Thomas,
Hennely Jimenez




Tartalom:
Hősünk miután bátyát elvesztette egy illegális utcai autóversenyben, úgy gondolja hogy bosszút csak úgy állhat ha ő maga is keményen részt vesz a versenyeken az életét kockáztatva.

Format: AVI
File Size: 699 MiB
Overall Bit Rate: 1 060 Kbps
Duration: 1h 32mn
Sample: Included
Subtitles: YES

Container: XVID
Video Codec Type: XviD
Video bitrate: 917 Kbps
Encoding type: 2 Pass TURBO 1ST PASS
Resolution: 640 X 352 pixels
Aspect ratio(AR): 16:9
Quality Factor(QF): 0.170
Frame Rate: 23.976 fps
Source: DVD.Thanks!!
Audio Language:
Audio Codec: MPEG Audio (MP3)
Bitrate Mode: Variable
Bitrate: 128 Kbps
Sample Rate: 48.0 KHz
Channel Count: 2 channels ()





letöltés:

[code]

http://download.hellshare.hu/200-m-p-h-pokoli-sebesseg-dvdrip-2011/200-m-p-h-pokoli-sebesseg-dvdrip-2011-avi/3417863/
[/code]

 © szalito12011. aug. 15. 12:27 | Válasz | #494 
Így készült A Birodalom visszavág Kiegészítő magyar felirat mellékelve.



Kiegészítő magyar felirat mellékelve.

Amerikai dokumentumfilm, 49 perc, 1980
Rendező: Robert Guenette
Szereplők: Mark Hamill, Bob Anderson, Ben Burtt, Peter Diamond, Richard Edlund

Igazi ritkaság a Star Wars rajongóknak: Az Így készült A Birodalom visszavág című dokumentumfilm magyar szinkronos verziója! Bár a komolyabb rajongók biztosan ismerik ezt a dokumentumfilmet (eredeti címe: SPFX: The Empire Strikes Back), legjobb tudomásom szerint a legnagyobb gyűjtőknek sem volt meg a szinkronos verzió - eddig! Narrátor: Mark Hamill (azaz Luke....)




[General] Format: AVI
[General] File size: 547 MiB
[General] PlayTime: 48mn 51s
[General] Bit rate: 1558 Kbps
[Video] Codec: XviD
[Video] PlayTime: 48mn 50s
[Video] Bit rate: 1409 Kbps
[Video] Width: 560 pixels
[Video] Height: 416 pixels
[Video] Frame rate: 29.979 fps
[Audio] Codec: MPEG-1 Audio layer 3
[Audio] PlayTime: 48mn 51s
[Audio] Bit rate: 136 Kbps
[Audio] Sampling rate: 48 KHz



letöltés:

[code]

http://download.hellshare.hu/igy-keszult-a-birodalom-visszavag-custom-hun-dvdrip-xvid/igy-keszult-a-birodalom-visszavag-custom-hun-dvdrip-xvid-rar/3418075/
[/code]

 © szalito12011. aug. 15. 12:26 | Válasz | #493 
Rohanás (Faster)



amerikai akciófilm, 95 perc, 2010


rendező: George Tillman Jr.
forgatókönyvíró: Joe Gayton, Tony Gayton
zeneszerző: Clint Mansell
operatőr: Michael Grady
producer: Tony Gayton, Martin Shafer, Liz Glotzer, Robert Teitel
vágó: Dirk Westervelt

szereplő(k):
Dwayne "The Rock" Johnson
Oliver Jackson-Cohen
Billy Bob Thornton
Carla Gugino
Jennifer Carpenter
Tom Berenger
Mike Epps
Moon Bloodgood


Tartalom:

A szabadulás nem egyenlő a szabadsággal. Egy férfi (Dwayne Johnson) kiszabadul a börtönből, és tudja: legfontosabb feladata az, hogy megbosszulja a testvére halálát, akivel együtt vett részt egy félresikerült betörésben. Nem érdekli, hogy vannak-e tanúk. Nem finomkodik. Akinek része lehetett az árulásban, annak vége.
Tudja, hogy csak néhány órája van. A nyomában egy zsaru (Billy Bob Thornton) és egy bérgyilkos (Oliver Jackson-Cohen). Ő mégis mindenen keresztülverekszi magát, hogy megtudja, pontosan mi történt azon a végzetes éjszakán, megtalálja a bűnöst, és a szemébe nézzen.




Video Codec.....: XviD v1.3.1
───── Resolution: 624x256
Source AR.: 2.400
Bitrate...: 1140 kbps
QF........: 0.297
Frame Rate: 23.976 fps

Audio Language..: Hungarian
───── Codec.....: Dolby Digital AC3
Channels..: 6 (5.1)
Bitrate...: 448 kbps @ CBR
Frequency.: 48,000 Hz

Misc. Subtitles.: Hungarian Forced and Full
───── Size......: 1.08 GB (1,167,036,416 bytes)
Packaging.: 1 x 59 x 20MB

sample:
[code]http://download.hellshare.hu/faster-2010-retail-hun-bdrip-xvid-dwp/dwp-fstr-r-sample-avi/3418104/[/code]

letöltés:

[code]http://download.hellshare.hu/faster-2010-retail-hun-bdrip-xvid-dwp/faster-avi/3418167/[/code]

 © szalito12011. aug. 10. 23:05 | Válasz | #492 
Tactical Force (2011)Hunsub.DVDRip.XviD-Blackpanther



színes, feliratos, amerikai akciófilm, 2011

tartalom:

Egy LAPD SWAT gyakorlat rosszra fordul, amikor a csapat tagjai 2 rivális banda között találják magukat, miközben egy hangárban ragadnak


Rendező:
Adamo P. Cultraro

Szereplő(k):
Michael Jai White ... Hunt
Steve Austin ... Tate
Michael Shanks ... Demetrius
Lexa Doig ... Jannard
Darren Shahlavi ... Storato
Adrian Holmes ... Lampone







Fajlmeret: Filesize: 731793408 Bytes (697,89 MB)
Adatfolyamok (pl.: video, audio): Streams (i.e. Video, Audio): 2

Tomorites: Compression: xvid - XVID MPEG-4
Atlag bitrata: Avg. Bitrate: 966,83 kbit/s
Felbontas: Resolution: 640x352
Szinmelyseg: Color Depth: 12 bits
Jatekido: Running Time: 5301,30 s (1h 28m 21s)
Kepkocka / mp: Framerate: 23,9760 fps
Mikromasodperc / kep: Microseconds Per Frame: 41708 ms
Osszes kepkocka: Frames: 127104
Keyframe: Keyframes: 1876 (Every 67)

Hanghullam tipusa: Wave Type: 85 - MPEG Layer 3
Atlag bitrata: Avg. Bitrate: 128,00 kbit/s
Mintavetelezesi ertek: Sample Rate: 48000 Hz
Csatornak: Channels: 2



sample:


[code]

http://download.hellshare.hu/tactical-force-2011-hunsub-dvdrip-xvid/sample-avi/3402153/
[/code]

letöltés:



http://download.hellshare.hu/tactical-force-2011-hunsub-dvdrip-xvid/tactical-force-2011-hunsub-dvdrip-xvid-blackpanther-avi/3402152/


 © szalito12011. aug. 10. 23:04 | Válasz | #491 
Tactical Force (2011)Hunsub.DVDRip.XviD-Blackpanther



színes, feliratos, amerikai akciófilm, 2011

tartalom:

Egy LAPD SWAT gyakorlat rosszra fordul, amikor a csapat tagjai 2 rivális banda között találják magukat, miközben egy hangárban ragadnak


Rendező:
Adamo P. Cultraro

Szereplő(k):
Michael Jai White ... Hunt
Steve Austin ... Tate
Michael Shanks ... Demetrius
Lexa Doig ... Jannard
Darren Shahlavi ... Storato
Adrian Holmes ... Lampone







Fajlmeret: Filesize: 731793408 Bytes (697,89 MB)
Adatfolyamok (pl.: video, audio): Streams (i.e. Video, Audio): 2

Tomorites: Compression: xvid - XVID MPEG-4
Atlag bitrata: Avg. Bitrate: 966,83 kbit/s
Felbontas: Resolution: 640x352
Szinmelyseg: Color Depth: 12 bits
Jatekido: Running Time: 5301,30 s (1h 28m 21s)
Kepkocka / mp: Framerate: 23,9760 fps
Mikromasodperc / kep: Microseconds Per Frame: 41708 ms
Osszes kepkocka: Frames: 127104
Keyframe: Keyframes: 1876 (Every 67)

Hanghullam tipusa: Wave Type: 85 - MPEG Layer 3
Atlag bitrata: Avg. Bitrate: 128,00 kbit/s
Mintavetelezesi ertek: Sample Rate: 48000 Hz
Csatornak: Channels: 2



sample:


[code]

http://download.hellshare.hu/tactical-force-2011-hunsub-dvdrip-xvid/sample-avi/3402153/
[/code]

letöltés:



http://download.hellshare.hu/tactical-force-2011-hunsub-dvdrip-xvid/tactical-force-2011-hunsub-dvdrip-xvid-blackpanther-avi/3402152/


 © szalito12011. aug. 10. 23:03 | Válasz | #490 
Hazárd megye lordjai: Irány Hollywood!
The Dukes of Hazzard: Hazzard in Hollywood)



színes, magyarul beszélő, amerikai akció-vígjáték, 120 perc, 2000
Stereo

rendező: Bradford May
operatőr: Bradford May
jelmeztervező: Betty Pecha Madden
zene: Tom Rizzo
producer: Skip Ward
executive producer: Gy Waldron
látványtervező: Rodger Maus
vágó: Drake Silliman

szereplő(k):
Tom Wopat (Luke Duke)
John Schneider (Bo Duke)
James Best (Rosco P. Coltrane)
Catherine Bach (Daisy Duke)
Rick Hurst (Deputy Cletus Hogg)
Patricia Manterola (Gabriela)
Susie Park (Sharon)


Video info:
Formátum : MPEG-4 Visual
Codec ID/Hint : DivX 5
Duration : 1ó 23perc
Adatsebesség : 1 000Kbps
Szélesség : 720képpont
Magasság : 576képpont
Képarány : 5/4
Képsebesség : 25,000fps
Standard : PAL
Szoftver beállítások : DivX 5.2.0 (UTC 2004-07-15)


Audio info:
Formátum : ADPCM
Csatorna : 2csatorna
Mintavételezési gyakoriság : 48,0KHz
Felbontás : 4bit


letöltés:
--

http://download.hellshare.hu/hazard-megye-lordjai-irany-hollywood-avi/3406262/

--

 © szalito12011. aug. 10. 23:02 | Válasz | #489 
Való világ 4 - Lebukott az RTL valóság show-ja

Információk:
Év: 2011
Nyelv: Hun





Leírás:
Lebukott a népbutító sza***zi műsor (mentsétek, mert törlik mindenhonnan)
VV Gigi Nem tudtunk forgatni, nagyon kamu volt, újraforgatni...
Miután Gigi és Jerzy visszatértek a luxushotelből a villába, Gigi elszólta
magát. Az eset után /09:35/, további online közvetítés nem volt...
A sok agyhalott meg elhiszi, hogy nem megrendezett az egész, küldözgeti az
SMS-eket, mintha bármit is számítana. Talán most sikerül kinyitni az ő
csipáikat is.
Az online közvetítést az elszólás után az RTL hirtelen megszakította (vajon
miért?), de szerencsére valaki lementette, így már letagadni sem tudják majd.

Leírás:
Lebukott a népbutító sza***zi műsor (mentsétek, mert törlik mindenhonnan)
VV Gigi Nem tudtunk forgatni, nagyon kamu volt, újraforgatni...
Miután Gigi és Jerzy visszatértek a luxushotelből a villába, Gigi elszólta
magát. Az eset után /09:35/, további online közvetítés nem volt...
A sok agyhalott meg elhiszi, hogy nem megrendezett az egész, küldözgeti az
SMS-eket, mintha bármit is számítana. Talán most sikerül kinyitni az ő
csipáikat is.
Az online közvetítést az elszólás után az RTL hirtelen megszakította (vajon
miért?), de szerencsére valaki lementette, így már letagadni sem tudják majd.

-- Video Információk ---
Video Codec Típus (pl. DIV3)
Video Codec Név (pl. DivX 3, Low-Motion)
Képméret (pixelben) ×
Bitsebesség (kbps)
--- Audio Információk ---
Audio Codec (pl. AC3)
Mintavételezési Frekvencia (Hz)
Audio Bitsebesség (kbps)
Audio Bitsebesség Típus (CBR vagy VBR)
Audio Csatornák Száma (pl. stereonál 2)



LETÖLTÉS:

http://download.hellshare.hu/valo-vilag-4-lebukott-az-rtl-valosag-show-ja/lebukott-az-rtl-valosag-show-ja-mp4/3407209/


[1] 2 3 4 5 ... Utolsó

Ugrás a tetejére

Tárhely és domain a MediaCentertől

 

 

 

________________________________________ uniWAREZum